<?xml version="1.0" standalone="no"?><!DOCTYPE svg PUBLIC "-//W3C//DTD SVG 1.1//EN" "http://www.w3.org/Graphics/SVG/1.1/DTD/svg11.dtd" ><svg xmlns="http://www.w3.org/2000/svg"><metadata>Generated by Glyphter</metadata><defs><font id="emblem-vault" horiz-adv-x="0"><font-face units-per-em="1024" ascent="1024" descent="0" font-family="emblem-vault" font-weight="normal" /><missing-glyph horiz-adv-x="0" /><glyph unicode="&#x0041;" d="M1021.817,427.795C995.848,453.546,970.097,479.516,944.127,505.049C939.763,509.413,938.89,511.596,943.909,516.615C969.66,541.711,994.975,567.681,1020.726,592.995C1025.527,597.578,1025.527,599.979,1020.726,604.78C882.586,742.265,744.883,880.186,606.962,1018.108C605.216,1019.854,603.47,1022.036,601.724,1024C601.288,1024,600.851,1024,600.415,1024C597.359,1022.472,595.177,1020.29,592.777,1017.89C568.117,993.23,543.457,968.57,518.797,943.91C513.341,938.454,513.341,938.454,507.885,943.91C483.225,968.57,458.565,993.23,433.905,1017.89C431.505,1020.29,429.104,1022.472,426.267,1024C425.831,1024,425.394,1024,424.958,1024C422.121,1022.472,419.938,1020.508,417.756,1018.326C280.489,881.277,143.441,744.229,6.392,607.18C4.21,604.998,2.246,602.598,0.718,599.979C0.718,599.106,0.718,598.233,0.718,597.36C2.246,594.523,4.21,592.341,6.392,590.158C31.052,565.498,55.93,540.62,80.59,515.96C82.555,513.996,84.082,512.032,86.701,510.941C84.519,510.068,83.209,508.322,81.463,506.795C56.149,481.48,30.834,456.165,5.301,430.632C3.337,428.668,2.028,426.704,0.5,424.304C0.5,423.867,0.5,423.431,0.5,422.994C2.464,421.248,4.428,419.502,6.392,417.757C144.532,279.835,282.453,141.696,420.375,3.556C424.739,-0.809,426.922,-0.591,431.068,3.556C456.601,29.525,482.352,54.84,507.885,80.809C512.031,85.174,514.214,84.737,518.142,80.591C543.893,54.622,569.862,28.871,595.395,2.901C598.887,-0.591,600.851,-1.245,604.561,2.683C743.355,141.696,882.368,280.708,1021.381,419.502C1025.091,422.994,1024.872,424.522,1021.817,427.795C1021.817,427.795,1021.817,427.795,1021.817,427.795M938.453,419.721C891.097,372.583,843.741,325.227,796.604,277.871C793.33,274.598,791.584,274.816,788.529,277.871C758.85,307.769,729.17,337.448,699.491,367.127C695.999,370.619,694.035,371.274,690.326,367.345C679.414,355.779,668.066,344.65,656.718,333.738C653.663,330.683,653.663,329.155,656.718,326.1C686.179,296.857,715.64,267.178,745.101,237.935C749.466,233.57,750.121,231.17,745.319,226.587C698.4,180.104,651.699,133.403,605.216,86.483C601.942,83.21,600.196,82.555,596.705,86.265C584.484,98.922,572.045,111.362,559.387,123.582C555.459,127.292,556.55,129.038,559.606,132.093C589.067,161.336,618.528,191.016,647.989,220.258C652.135,224.187,652.353,226.587,648.207,230.733C637.077,241.427,626.166,252.338,615.473,263.468C611.763,267.396,609.58,266.741,606.089,263.25C577.064,234.007,547.821,204.982,519.015,175.739C514.65,171.157,512.25,170.502,507.449,175.521C478.642,204.982,449.399,233.789,420.375,263.031C416.665,266.741,414.483,267.396,410.554,263.25C399.861,252.12,388.95,241.208,377.82,230.515C373.674,226.587,374.11,224.187,378.038,220.477C407.499,191.452,436.524,161.991,465.985,132.966C470.568,128.602,469.913,126.419,465.767,122.491C453.546,110.707,441.543,98.704,429.759,86.483C426.049,82.555,424.085,83.21,420.811,86.702C374.328,133.403,327.845,179.886,281.144,226.369C276.779,230.733,276.343,233.134,280.926,237.717C310.387,266.741,339.411,296.202,368.872,325.227C372.582,328.937,372.582,330.683,368.872,334.393C357.525,345.086,346.395,356.216,335.702,367.564C332.21,371.274,330.464,370.837,327.191,367.345C297.511,337.448,267.832,307.987,238.153,278.089C234.661,274.598,233.133,274.379,229.423,278.089C182.504,325.227,135.366,372.365,88.01,419.502C84.3,423.212,84.955,424.958,88.229,428.232C100.449,440.234,112.67,452.237,124.673,464.676C128.383,468.604,130.129,468.823,134.275,464.894C163.736,435.215,193.415,405.754,222.877,376.075C226.586,372.365,228.332,372.365,231.824,376.075C242.517,387.423,253.647,398.552,264.995,409.246C269.141,413.174,268.487,415.356,264.777,419.066C235.316,448.091,206.291,477.552,176.83,506.576C172.902,510.504,172.247,512.469,176.612,516.833C206.291,546.076,235.534,575.537,264.995,604.78C268.487,608.272,269.141,610.454,265.213,614.164C254.083,624.857,243.172,635.769,232.479,646.898C228.987,650.608,226.805,650.608,223.095,646.898C193.852,617.219,164.173,587.976,134.712,558.515C133.184,556.987,132.093,555.023,129.474,554.369C128.601,555.242,127.51,555.896,126.637,556.987C113.325,570.3,100.231,583.393,86.919,596.705C84.519,599.106,84.3,600.415,86.919,602.816C134.712,650.39,182.286,697.964,229.86,745.757C234.006,749.903,235.97,747.502,238.807,744.665C268.268,715.204,297.729,685.961,326.972,656.282C330.464,652.791,332.428,652.136,336.138,656.064C347.049,667.63,358.397,678.76,369.745,689.671C372.801,692.727,372.801,694.254,369.745,697.309C340.284,726.552,311.042,756.232,281.362,785.474C276.998,789.839,276.343,792.24,281.144,796.822C328.063,843.305,374.765,890.007,421.248,936.926C425.176,940.854,426.922,939.981,430.195,936.708C442.198,924.487,454.2,912.266,466.64,900.264C470.786,896.335,471.004,894.371,466.858,890.007C437.397,860.982,408.372,831.521,378.911,802.496C374.983,798.568,374.328,796.386,378.693,792.24C389.823,781.765,400.516,771.071,410.991,760.16C414.483,756.45,416.665,756.45,420.375,760.16C449.618,789.621,479.297,819.082,508.322,848.543C512.468,852.689,514.432,852.689,518.578,848.543C547.821,818.864,577.282,789.621,606.525,760.16C610.235,756.45,612.199,756.668,615.691,760.16C625.948,771.071,636.641,781.546,647.552,791.803C651.699,795.731,652.135,798.132,647.771,802.496C618.31,831.521,589.285,860.982,559.824,890.007C555.896,893.935,555.896,895.899,559.824,899.827C572.481,911.83,584.702,924.269,596.705,936.708C600.196,940.2,602.161,940.2,605.652,936.708C652.79,889.352,699.928,842.214,747.065,795.295C750.557,791.803,749.902,790.276,746.847,787.22C716.95,757.541,687.489,727.862,657.591,698.182C653.881,694.472,653.881,692.727,657.591,689.017C668.939,678.323,680.069,667.194,690.762,655.846C694.254,652.136,695.999,652.572,699.491,656.064C728.734,685.525,758.413,714.986,787.656,744.447C791.584,748.375,793.767,748.812,798.131,744.665C844.832,697.746,891.752,650.826,938.671,604.125C942.163,600.634,942.381,599.106,938.671,595.614C926.014,583.393,913.575,570.954,901.354,558.297C897.862,554.587,895.898,554.587,892.188,558.297C862.946,587.976,833.266,617.219,804.242,646.68C800.095,650.826,797.913,651.045,793.985,646.68C783.728,635.769,773.253,625.075,762.123,615.037C757.54,610.89,758.413,608.708,762.341,604.78C791.366,576.192,819.954,547.385,848.761,518.579C855.089,512.25,855.089,512.25,848.979,506.14C819.954,477.115,790.93,447.872,761.687,418.848C758.413,415.574,757.759,413.61,761.469,410.119C773.035,398.989,784.383,387.641,795.512,376.075C798.786,372.801,800.313,372.801,803.587,376.075C833.266,406.19,863.382,435.87,893.061,465.986C896.553,469.477,898.081,469.695,901.572,465.986C913.793,453.328,926.232,440.889,938.89,428.668C941.727,424.522,941.727,422.994,938.453,419.721C938.453,419.721,938.453,419.721,938.453,419.721M724.806,515.96C655.627,584.921,586.448,654.1,517.487,723.279C513.996,726.771,512.25,726.771,508.758,723.279C486.28,700.583,463.803,678.105,441.107,655.409C395.06,609.363,349.014,563.316,302.967,517.27C296.202,510.504,296.42,512.25,303.185,505.267C309.514,498.938,315.843,492.391,322.389,486.063C384.367,424.085,446.344,362.108,508.322,300.349C509.849,298.821,510.94,296.857,513.777,296.202C515.087,297.294,516.614,298.603,517.924,299.912C586.884,368.873,655.845,437.834,724.806,506.576C728.079,510.286,728.734,512.25,724.806,515.96C724.806,515.96,724.806,515.96,724.806,515.96M642.097,507.667C600.415,465.986,558.733,424.304,517.051,382.622C513.996,379.566,512.25,379.566,509.194,382.622C467.513,424.304,425.831,466.204,384.149,507.667C380.875,510.941,381.312,512.469,384.367,515.524C426.049,556.987,467.513,598.451,508.976,640.133C512.25,643.407,513.996,643.407,517.269,640.133C558.733,598.451,600.196,556.987,641.878,515.524C643.188,514.214,644.715,513.341,645.152,511.159C644.061,510.068,643.188,508.759,642.097,507.667C642.097,507.667,642.097,507.667,642.097,507.667" class="icon-emblem"/><glyph unicode="&#x0042;" d="M703.863,1024.3C678.068,1024.3,654.672,1008.703,644.674,984.708C634.676,960.712,640.275,933.318,658.471,914.921C658.471,914.921,741.255,832.338,741.255,832.338C741.255,832.338,402.721,493.604,402.721,493.604C377.726,468.609,377.726,428.017,402.721,403.021C427.716,378.026,468.309,378.026,493.304,403.021C493.304,403.021,831.838,741.755,831.838,741.755C831.838,741.755,914.621,658.971,914.621,658.971C933.018,640.575,960.412,635.176,984.408,645.174C1008.403,655.172,1024,678.368,1024,704.363C1024,704.363,1024,960.313,1024,960.313C1024,995.706,995.406,1024.3,960.012,1024.3C960.012,1024.3,703.863,1024.3,703.863,1024.3C703.863,1024.3,703.863,1024.3,703.863,1024.3M159.969,960.313C71.586,960.313,0,888.727,0,800.344C0,800.344,0,160.469,0,160.469C0,72.086,71.586,0.5,159.969,0.5C159.969,0.5,799.844,0.5,799.844,0.5C888.227,0.5,959.813,72.086,959.813,160.469C959.813,160.469,959.813,384.425,959.813,384.425C959.813,419.818,931.218,448.413,895.825,448.413C860.432,448.413,831.838,419.818,831.838,384.425C831.838,384.425,831.838,160.469,831.838,160.469C831.838,142.872,817.44,128.475,799.844,128.475C799.844,128.475,159.969,128.475,159.969,128.475C142.372,128.475,127.975,142.872,127.975,160.469C127.975,160.469,127.975,800.344,127.975,800.344C127.975,817.94,142.372,832.338,159.969,832.338C159.969,832.338,383.925,832.338,383.925,832.338C419.318,832.338,447.913,860.932,447.913,896.325C447.913,931.718,419.318,960.313,383.925,960.313C383.925,960.313,159.969,960.313,159.969,960.313C159.969,960.313,159.969,960.313,159.969,960.313" class="icon-link"/><glyph unicode="&#x0043;" d="M512.296,1024C512.296,1024,505.431,1000.666,505.431,1000.666C505.431,1000.666,505.431,323.573,505.431,323.573C505.431,323.573,512.296,316.721,512.296,316.721C512.296,316.721,826.595,502.502,826.595,502.502C826.595,502.502,512.296,1024,512.296,1024M512.299,1024C512.299,1024,198,502.502,198,502.502C198,502.502,512.299,316.718,512.299,316.718C512.299,316.718,512.299,645.359,512.299,645.359C512.299,645.359,512.299,1024,512.299,1024M512.296,257.21C512.296,257.21,508.428,252.494,508.428,252.494C508.428,252.494,508.428,11.298,508.428,11.298C508.428,11.298,512.296,0,512.296,0C512.296,0,826.784,442.898,826.784,442.898C826.784,442.898,512.296,257.21,512.296,257.21M512.299,0.002C512.299,0.002,512.299,257.215,512.299,257.215C512.299,257.215,198,442.902,198,442.902C198,442.902,512.299,0.002,512.299,0.002M512.296,316.721C512.296,316.721,826.59,502.499,826.59,502.499C826.59,502.499,512.296,645.356,512.296,645.356C512.296,645.356,512.296,316.721,512.296,316.721M198,502.502C198,502.502,512.294,316.721,512.294,316.721C512.294,316.721,512.294,645.359,512.294,645.359C512.294,645.359,198,502.502,198,502.502" class="icon-ethereum"/><glyph unicode="&#x0044;" d="M992.164,691.235C998.565,673.832,993.164,654.428,979.361,642.025C979.361,642.025,892.744,563.21,892.744,563.21C894.945,546.607,896.145,529.603,896.145,512.4C896.145,495.197,894.945,478.193,892.744,461.59C892.744,461.59,979.361,382.775,979.361,382.775C993.164,370.372,998.565,350.968,992.164,333.565C983.362,309.76,972.76,286.956,960.557,264.952C960.557,264.952,951.156,248.748,951.156,248.748C937.953,226.744,923.15,205.94,906.947,186.336C895.145,171.933,875.541,167.133,857.937,172.734C857.937,172.734,746.516,208.141,746.516,208.141C719.71,187.537,690.105,170.333,658.498,157.331C658.498,157.331,633.493,43.108,633.493,43.108C629.493,24.905,615.49,10.502,597.086,7.501C569.481,2.9,541.075,0.5,512.07,0.5C483.064,0.5,454.659,2.9,427.053,7.501C408.65,10.502,394.647,24.905,390.646,43.108C390.646,43.108,365.641,157.331,365.641,157.331C334.035,170.333,304.429,187.537,277.624,208.141C277.624,208.141,166.402,172.534,166.402,172.534C148.799,166.933,129.195,171.933,117.393,186.136C101.19,205.74,86.387,226.544,73.184,248.548C73.184,248.548,63.782,264.752,63.782,264.752C51.58,286.756,40.978,309.56,32.176,333.365C25.775,350.768,31.176,370.172,44.979,382.575C44.979,382.575,131.595,461.39,131.595,461.39C129.395,478.193,128.195,495.197,128.195,512.4C128.195,529.603,129.395,546.607,131.595,563.21C131.595,563.21,44.979,642.025,44.979,642.025C31.176,654.428,25.775,673.832,32.176,691.235C40.978,715.04,51.58,737.844,63.782,759.848C63.782,759.848,73.184,776.051,73.184,776.051C86.387,798.056,101.19,818.86,117.393,838.464C129.195,852.866,148.799,857.667,166.402,852.066C166.402,852.066,277.824,816.659,277.824,816.659C304.629,837.263,334.235,854.467,365.841,867.469C365.841,867.469,390.846,981.692,390.846,981.692C394.847,999.895,408.85,1014.298,427.253,1017.299C454.859,1022.1,483.264,1024.5,512.27,1024.5C541.275,1024.5,569.681,1022.1,597.286,1017.499C615.69,1014.498,629.693,1000.095,633.694,981.892C633.694,981.892,658.698,867.669,658.698,867.669C690.305,854.667,719.91,837.463,746.716,816.859C746.716,816.859,858.137,852.266,858.137,852.266C875.741,857.867,895.345,852.866,907.147,838.664C923.35,819.06,938.153,798.256,951.356,776.252C951.356,776.252,960.757,760.048,960.757,760.048C972.96,738.044,983.562,715.24,992.364,691.435C992.364,691.435,992.164,691.235,992.164,691.235M512.27,352.369C635.462,352.369,712.457,485.729,650.861,592.416C622.273,641.929,569.443,672.431,512.27,672.431C389.078,672.431,312.083,539.071,373.679,432.384C402.266,382.871,455.097,352.369,512.27,352.369C512.27,352.369,512.27,352.369,512.27,352.369" class="icon-settings"/><glyph unicode="&#x0045;" d="M918.744,720.908C919.394,711.812,919.394,702.714,919.394,693.618C919.394,416.177,708.227,96.5,322.275,96.5C203.371,96.5,92.914,130.938,0,190.712C16.894,188.764,33.136,188.114,50.68,188.114C148.791,188.114,239.107,221.25,311.229,277.779C218.965,279.729,141.645,340.155,115.004,423.323C128.001,421.375,140.995,420.075,154.641,420.075C173.483,420.075,192.327,422.675,209.869,427.221C113.706,446.715,41.582,531.182,41.582,633.192C41.582,633.192,41.582,635.79,41.582,635.79C69.52,620.196,102.01,610.45,136.445,609.152C79.916,646.838,42.882,711.162,42.882,783.935C42.882,822.919,53.276,858.655,71.47,889.843C174.781,762.493,330.071,679.326,504.202,670.228C500.954,685.822,499.004,702.064,499.004,718.308C499.004,833.965,592.568,928.177,708.873,928.177C769.299,928.177,823.877,902.837,862.213,861.903C909.644,870.999,955.126,888.543,995.412,912.583C979.816,863.851,946.68,822.917,903.148,796.929C945.382,801.475,986.316,813.173,1024,829.415C995.416,787.833,959.678,750.799,918.744,720.908C918.744,720.908,918.744,720.908,918.744,720.908" class="icon-twitter"/><glyph unicode="&#x0046;" d="M868.193,836.298C867.909,836.85,867.437,837.282,866.862,837.517C800.471,867.978,730.409,889.7,658.429,902.138C657.088,902.387,655.738,901.748,655.08,900.553C645.54,883.237,636.88,865.451,629.132,847.263C551.542,859.041,472.617,859.041,395.028,847.263C387.23,865.498,378.43,883.288,368.671,900.553C367.986,901.72,366.656,902.348,365.32,902.138C293.333,889.726,223.266,868.002,156.883,837.516C156.315,837.275,155.835,836.863,155.511,836.338C22.758,638.089,-13.608,444.715,4.232,253.734C4.333,252.789,4.813,251.925,5.564,251.34C82.864,194.104,169.326,150.416,261.26,122.14C262.585,121.742,264.019,122.211,264.853,123.317C284.598,150.183,302.093,178.632,317.162,208.375C318.04,210.106,317.209,212.215,315.388,212.882C287.799,223.439,261.088,236.164,235.508,250.939C233.495,252.124,233.326,254.971,235.186,256.383C240.554,260.404,245.924,264.587,251.05,268.812C251.978,269.577,253.26,269.749,254.358,269.258C421.941,192.777,603.373,192.777,768.972,269.258C770.073,269.782,771.379,269.624,772.323,268.852C777.45,264.628,782.819,260.404,788.227,256.383C790.097,254.985,789.949,252.137,787.944,250.939C762.423,236.039,735.689,223.323,708.027,212.922C706.207,212.229,705.394,210.106,706.285,208.375C721.605,178.798,739.076,150.385,758.555,123.364C759.366,122.227,760.812,121.735,762.148,122.145C854.245,150.326,940.859,194.018,1018.256,251.34C1019.019,251.895,1019.505,252.754,1019.589,253.694C1040.946,474.487,983.832,666.277,868.193,836.298C868.193,836.298,868.193,836.298,868.193,836.298M342.189,370.022C291.735,370.022,250.161,416.323,250.161,473.186C250.161,530.05,290.928,576.355,342.189,576.355C393.851,576.355,435.022,529.648,434.216,473.19C434.216,416.323,393.447,370.022,342.189,370.022C342.189,370.022,342.189,370.022,342.189,370.022M682.444,370.022C631.991,370.022,590.418,416.323,590.418,473.186C590.418,530.05,631.185,576.355,682.444,576.355C734.109,576.355,775.278,529.648,774.472,473.19C774.472,416.323,734.109,370.022,682.444,370.022C682.444,370.022,682.444,370.022,682.444,370.022" class="icon-discord"/><glyph unicode="&#x0047;" d="M128,960C57.4,960,0,902.6,0,832C0,832,0,192,0,192C0,121.4,57.4,64,128,64C128,64,896,64,896,64C966.6,64,1024,121.4,1024,192C1024,192,1024,640,1024,640C1024,710.6,966.6,768,896,768C896,768,160,768,160,768C142.4,768,128,782.4,128,800C128,817.6,142.4,832,160,832C160,832,896,832,896,832C931.4,832,960,860.6,960,896C960,931.4,931.4,960,896,960C896,960,128,960,128,960C128,960,128,960,128,960M832,480C881.268,480,912.06,426.666,887.426,384C875.994,364.198,854.864,352,832,352C782.732,352,751.94,405.334,776.574,448C788.006,467.802,809.136,480,832,480C832,480,832,480,832,480" class="icon-wallet"/><glyph unicode="&#x0048;" d="M1024.232,513.039C1024.232,481.036,997.563,455.967,967.338,455.967C967.338,455.967,910.444,455.967,910.444,455.967C910.444,455.967,911.689,171.143,911.689,171.143C911.689,166.343,911.333,161.542,910.8,156.742C910.8,156.742,910.8,128.117,910.8,128.117C910.8,88.825,878.975,57,839.682,57C839.682,57,811.236,57,811.236,57C809.28,57,807.324,57,805.368,57.178C802.879,57,800.39,57,797.901,57C797.901,57,740.118,57,740.118,57C740.118,57,697.448,57,697.448,57C658.156,57,626.331,88.825,626.331,128.117C626.331,128.117,626.331,170.787,626.331,170.787C626.331,170.787,626.331,284.575,626.331,284.575C626.331,316.044,600.907,341.469,569.437,341.469C569.437,341.469,455.65,341.469,455.65,341.469C424.18,341.469,398.756,316.044,398.756,284.575C398.756,284.575,398.756,170.787,398.756,170.787C398.756,170.787,398.756,128.117,398.756,128.117C398.756,88.825,366.931,57,327.639,57C327.639,57,284.969,57,284.969,57C284.969,57,228.253,57,228.253,57C225.586,57,222.919,57.178,220.252,57.356C218.119,57.178,215.985,57,213.851,57C213.851,57,185.405,57,185.405,57C146.112,57,114.287,88.825,114.287,128.117C114.287,128.117,114.287,327.245,114.287,327.245C114.287,328.845,114.287,330.623,114.465,332.223C114.465,332.223,114.465,455.967,114.465,455.967C114.465,455.967,57.394,455.967,57.394,455.967C25.391,455.967,0.5,480.858,0.5,513.039C0.5,529.04,5.834,543.264,18.279,555.709C18.279,555.709,474.14,953.076,474.14,953.076C486.586,965.522,500.809,967.3,513.255,967.3C525.7,967.3,539.924,963.744,550.591,954.854C550.591,954.854,1004.674,555.709,1004.674,555.709C1018.898,543.264,1026.009,529.04,1024.232,513.039C1024.232,513.039,1024.232,513.039,1024.232,513.039" class="icon-home"/><glyph unicode="&#x0049;" d="M292.553,274.581C292.553,274.581,292.553,164.85,292.553,164.85C292.553,149.617,287.209,136.657,276.553,126.001C265.896,115.344,252.936,110,237.703,110C237.703,110,54.85,110,54.85,110C39.617,110,26.657,115.344,16.001,126.001C5.344,136.657,0,149.617,0,164.85C0,164.85,0,274.581,0,274.581C0,289.814,5.344,302.774,16.001,313.43C26.657,324.087,39.617,329.431,54.85,329.431C54.85,329.431,237.703,329.431,237.703,329.431C252.936,329.431,265.896,324.087,276.553,313.43C287.209,302.774,292.553,289.814,292.553,274.581C292.553,274.581,292.553,274.581,292.553,274.581M292.553,567.166C292.553,567.166,292.553,457.435,292.553,457.435C292.553,442.202,287.209,429.242,276.553,418.586C265.896,407.929,252.936,402.585,237.703,402.585C237.703,402.585,54.85,402.585,54.85,402.585C39.617,402.585,26.657,407.929,16.001,418.586C5.344,429.242,0,442.202,0,457.435C0,457.435,0,567.166,0,567.166C0,582.399,5.344,595.359,16.001,606.016C26.657,616.672,39.617,622.016,54.85,622.016C54.85,622.016,237.703,622.016,237.703,622.016C252.936,622.016,265.896,616.672,276.553,606.016C287.209,595.359,292.553,582.399,292.553,567.166C292.553,567.166,292.553,567.166,292.553,567.166M1024,274.581C1024,274.581,1024,164.85,1024,164.85C1024,149.617,1018.656,136.657,1007.999,126.001C997.343,115.344,984.383,110,969.15,110C969.15,110,420.557,110,420.557,110C405.325,110,392.364,115.344,381.708,126.001C371.052,136.657,365.707,149.617,365.707,164.85C365.707,164.85,365.707,274.581,365.707,274.581C365.707,289.814,371.052,302.774,381.708,313.43C392.364,324.087,405.325,329.431,420.557,329.431C420.557,329.431,969.15,329.431,969.15,329.431C984.383,329.431,997.343,324.087,1007.999,313.43C1018.656,302.774,1024,289.814,1024,274.581C1024,274.581,1024,274.581,1024,274.581M292.553,859.751C292.553,859.751,292.553,750.02,292.553,750.02C292.553,734.788,287.209,721.827,276.553,711.171C265.896,700.514,252.936,695.17,237.703,695.17C237.703,695.17,54.85,695.17,54.85,695.17C39.617,695.17,26.657,700.514,16.001,711.171C5.344,721.827,0,734.788,0,750.02C0,750.02,0,859.751,0,859.751C0,874.984,5.344,887.944,16.001,898.601C26.657,909.257,39.617,914.601,54.85,914.601C54.85,914.601,237.703,914.601,237.703,914.601C252.936,914.601,265.896,909.257,276.553,898.601C287.209,887.944,292.553,874.984,292.553,859.751C292.553,859.751,292.553,859.751,292.553,859.751M1024,567.166C1024,567.166,1024,457.435,1024,457.435C1024,442.202,1018.656,429.242,1007.999,418.586C997.343,407.929,984.383,402.585,969.15,402.585C969.15,402.585,420.557,402.585,420.557,402.585C405.325,402.585,392.364,407.929,381.708,418.586C371.052,429.242,365.707,442.202,365.707,457.435C365.707,457.435,365.707,567.166,365.707,567.166C365.707,582.399,371.052,595.359,381.708,606.016C392.364,616.672,405.325,622.016,420.557,622.016C420.557,622.016,969.15,622.016,969.15,622.016C984.383,622.016,997.343,616.672,1007.999,606.016C1018.656,595.359,1024,582.399,1024,567.166C1024,567.166,1024,567.166,1024,567.166M1024,859.751C1024,859.751,1024,750.02,1024,750.02C1024,734.788,1018.656,721.827,1007.999,711.171C997.343,700.514,984.383,695.17,969.15,695.17C969.15,695.17,420.557,695.17,420.557,695.17C405.325,695.17,392.364,700.514,381.708,711.171C371.052,721.827,365.707,734.788,365.707,750.02C365.707,750.02,365.707,859.751,365.707,859.751C365.707,874.984,371.052,887.944,381.708,898.601C392.364,909.257,405.325,914.601,420.557,914.601C420.557,914.601,969.15,914.601,969.15,914.601C984.383,914.601,997.343,909.257,1007.999,898.601C1018.656,887.944,1024,874.984,1024,859.751C1024,859.751,1024,859.751,1024,859.751" class="icon-list"/><glyph unicode="&#x004a;" d="M465,1014.05C494.8,1027.85,529.2,1027.85,559,1014.05C559,1014.05,996.2,812.05,996.2,812.05C1013.2,804.25,1024,787.25,1024,768.45C1024,749.65,1013.2,732.65,996.2,724.85C996.2,724.85,559,522.85,559,522.85C529.2,509.05,494.8,509.05,465,522.85C465,522.85,27.8,724.85,27.8,724.85C10.8,732.85,0,749.85,0,768.45C0,787.05,10.8,804.25,27.8,812.05C27.8,812.05,465,1014.05,465,1014.05C465,1014.05,465,1014.05,465,1014.05M889.8,605.25C889.8,605.25,996.2,556.05,996.2,556.05C1013.2,548.25,1024,531.25,1024,512.45C1024,493.65,1013.2,476.65,996.2,468.85C996.2,468.85,559,266.85,559,266.85C529.2,253.05,494.8,253.05,465,266.85C465,266.85,27.8,468.85,27.8,468.85C10.8,476.85,0,493.85,0,512.45C0,531.05,10.8,548.25,27.8,556.05C27.8,556.05,134.2,605.25,134.2,605.25C134.2,605.25,438.2,464.85,438.2,464.85C485,443.25,539,443.25,585.8,464.85C585.8,464.85,889.8,605.25,889.8,605.25C889.8,605.25,889.8,605.25,889.8,605.25M585.8,208.85C585.8,208.85,889.8,349.25,889.8,349.25C889.8,349.25,996.2,300.05,996.2,300.05C1013.2,292.25,1024,275.25,1024,256.45C1024,237.65,1013.2,220.65,996.2,212.85C996.2,212.85,559,10.85,559,10.85C529.2,-2.95,494.8,-2.95,465,10.85C465,10.85,27.8,212.85,27.8,212.85C10.8,220.85,0,237.85,0,256.45C0,275.05,10.8,292.25,27.8,300.05C27.8,300.05,134.2,349.25,134.2,349.25C134.2,349.25,438.2,208.85,438.2,208.85C485,187.25,539,187.25,585.8,208.85C585.8,208.85,585.8,208.85,585.8,208.85" class="icon-vaults"/><glyph unicode="&#x004b;" d="M146.286,914.286C126.171,914.286,109.714,897.829,109.714,877.714C109.714,877.714,109.714,146.286,109.714,146.286C109.714,126.171,126.171,109.714,146.286,109.714C146.286,109.714,877.714,109.714,877.714,109.714C897.829,109.714,914.286,126.171,914.286,146.286C914.286,146.286,914.286,877.714,914.286,877.714C914.286,897.829,897.829,914.286,877.714,914.286C877.714,914.286,146.286,914.286,146.286,914.286C146.286,914.286,146.286,914.286,146.286,914.286M0,877.714C0,958.4,65.6,1024,146.286,1024C146.286,1024,877.714,1024,877.714,1024C958.4,1024,1024,958.4,1024,877.714C1024,877.714,1024,146.286,1024,146.286C1024,65.6,958.4,0,877.714,0C877.714,0,146.286,0,146.286,0C65.6,0,0,65.6,0,146.286C0,146.286,0,877.714,0,877.714C0,877.714,0,877.714,0,877.714M457.143,310.857C457.143,310.857,457.143,457.143,457.143,457.143C457.143,457.143,310.857,457.143,310.857,457.143C280.457,457.143,256,481.6,256,512C256,542.4,280.457,566.857,310.857,566.857C310.857,566.857,457.143,566.857,457.143,566.857C457.143,566.857,457.143,713.143,457.143,713.143C457.143,743.543,481.6,768,512,768C542.4,768,566.857,743.543,566.857,713.143C566.857,713.143,566.857,566.857,566.857,566.857C566.857,566.857,713.143,566.857,713.143,566.857C743.543,566.857,768,542.4,768,512C768,481.6,743.543,457.143,713.143,457.143C713.143,457.143,566.857,457.143,566.857,457.143C566.857,457.143,566.857,310.857,566.857,310.857C566.857,280.457,542.4,256,512,256C481.6,256,457.143,280.457,457.143,310.857C457.143,310.857,457.143,310.857,457.143,310.857" class="icon-create-vault"/><glyph unicode="&#x004c;" d="M1002.603,759.844C990.826,804.187,956.127,839.111,912.07,850.963C832.214,872.499,512,872.499,512,872.499C512,872.499,191.788,872.499,111.93,850.963C67.873,839.109,33.174,804.187,21.397,759.844C0,679.468,0,511.772,0,511.772C0,511.772,0,344.076,21.397,263.7C33.174,219.357,67.873,185.888,111.93,174.036C191.788,152.5,512,152.5,512,152.5C512,152.5,832.212,152.5,912.07,174.036C956.127,185.888,990.826,219.357,1002.603,263.7C1024,344.076,1024,511.772,1024,511.772C1024,511.772,1024,679.468,1002.603,759.844C1002.603,759.844,1002.603,759.844,1002.603,759.844M407.272,359.517C407.272,359.517,407.272,664.028,407.272,664.028C407.272,664.028,674.907,511.768,674.907,511.768C674.907,511.768,407.272,359.517,407.272,359.517C407.272,359.517,407.272,359.517,407.272,359.517" class="icon-youtube"/><glyph unicode="&#x004d;" d="M256,1024C150,1024,64,938,64,832C64,832,64,192,64,192C64,86,150,0,256,0C256,0,832,0,832,0C832,0,896,0,896,0C931.4,0,960,28.6,960,64C960,99.4,931.4,128,896,128C896,128,896,256,896,256C931.4,256,960,284.6,960,320C960,320,960,960,960,960C960,995.4,931.4,1024,896,1024C896,1024,832,1024,832,1024C832,1024,256,1024,256,1024C256,1024,256,1024,256,1024M256,256C256,256,768,256,768,256C768,256,768,128,768,128C768,128,256,128,256,128C220.6,128,192,156.6,192,192C192,227.4,220.6,256,256,256C256,256,256,256,256,256M320,736C320,753.6,334.4,768,352,768C352,768,736,768,736,768C753.6,768,768,753.6,768,736C768,718.4,753.6,704,736,704C736,704,352,704,352,704C334.4,704,320,718.4,320,736C320,736,320,736,320,736M352,640C352,640,736,640,736,640C753.6,640,768,625.6,768,608C768,590.4,753.6,576,736,576C736,576,352,576,352,576C334.4,576,320,590.4,320,608C320,625.6,334.4,640,352,640C352,640,352,640,352,640" class="icon-docs"/><glyph unicode="&#x004e;" d="M704.5,512.5C704.5,468.1,702.1,425.3,697.9,384.5C697.9,384.5,327.1,384.5,327.1,384.5C322.7,425.3,320.5,468.1,320.5,512.5C320.5,556.9,322.9,599.7,327.1,640.5C327.1,640.5,697.9,640.5,697.9,640.5C702.3,599.7,704.5,556.9,704.5,512.5C704.5,512.5,704.5,512.5,704.5,512.5M762.1,640.5C762.1,640.5,1008.3,640.5,1008.3,640.5C1018.9,599.5,1024.5,556.7,1024.5,512.5C1024.5,468.3,1018.9,425.5,1008.3,384.5C1008.3,384.5,762.1,384.5,762.1,384.5C766.3,425.7,768.5,468.5,768.5,512.5C768.5,556.5,766.3,599.3,762.1,640.5C762.1,640.5,762.1,640.5,762.1,640.5M987.3,704.5C987.3,704.5,753.9,704.5,753.9,704.5C733.9,832.3,694.3,939.3,643.3,1007.7C799.9,966.3,927.3,852.7,987.1,704.5C987.1,704.5,987.3,704.5,987.3,704.5M689.1,704.5C689.1,704.5,335.9,704.5,335.9,704.5C348.1,777.3,366.9,841.7,389.9,893.9C410.9,941.1,434.3,975.3,456.9,996.9C479.3,1018.1,497.9,1024.5,512.5,1024.5C527.1,1024.5,545.7,1018.1,568.1,996.9C590.7,975.3,614.1,941.1,635.1,893.9C658.3,841.9,676.9,777.5,689.1,704.5C689.1,704.5,689.1,704.5,689.1,704.5M271.1,704.5C271.1,704.5,37.7,704.5,37.7,704.5C97.7,852.7,224.9,966.3,381.7,1007.7C330.7,939.3,291.1,832.3,271.1,704.5C271.1,704.5,271.1,704.5,271.1,704.5M16.7,640.5C16.7,640.5,262.9,640.5,262.9,640.5C258.7,599.3,256.5,556.5,256.5,512.5C256.5,468.5,258.7,425.7,262.9,384.5C262.9,384.5,16.7,384.5,16.7,384.5C6.1,425.5,0.5,468.3,0.5,512.5C0.5,556.7,6.1,599.5,16.7,640.5C16.7,640.5,16.7,640.5,16.7,640.5M389.9,131.3C366.7,183.3,348.1,247.7,335.9,320.5C335.9,320.5,689.1,320.5,689.1,320.5C676.9,247.7,658.1,183.3,635.1,131.3C614.1,84.1,590.7,49.9,568.1,28.3C545.7,6.9,527.1,0.5,512.5,0.5C497.9,0.5,479.3,6.9,456.9,28.1C434.3,49.7,410.9,83.9,389.9,131.1C389.9,131.1,389.9,131.3,389.9,131.3M271.1,320.5C291.1,192.7,330.7,85.7,381.7,17.3C224.9,58.7,97.7,172.3,37.7,320.5C37.7,320.5,271.1,320.5,271.1,320.5C271.1,320.5,271.1,320.5,271.1,320.5M987.3,320.5C927.3,172.3,800.1,58.7,643.5,17.3C694.5,85.7,733.9,192.7,754.1,320.5C754.1,320.5,987.3,320.5,987.3,320.5C987.3,320.5,987.3,320.5,987.3,320.5" class="icon-website"/><glyph unicode="&#x004f;" d="M512,1024C229.229,1024,0,794.771,0,512C0,229.229,229.229,0,512,0C794.771,0,1024,229.229,1024,512C1024,794.771,794.771,1024,512,1024C512,1024,512,1024,512,1024M749.32,675.799C741.615,594.839,708.276,398.373,691.307,307.695C684.131,269.329,669.997,256.462,656.318,255.205C626.589,252.468,604.007,274.853,575.209,293.731C530.147,323.27,504.69,341.659,460.947,370.484C410.397,403.795,443.167,422.097,471.975,452.032C479.515,459.863,610.519,579.02,613.054,589.83C613.37,591.182,613.673,596.23,610.671,598.881C607.67,601.532,603.26,600.634,600.07,599.913C595.551,598.887,523.563,551.304,384.105,457.169C363.673,443.138,345.166,436.302,328.582,436.66C310.301,437.054,275.136,446.995,248.993,455.494C216.929,465.916,191.445,471.426,193.664,489.127C194.82,498.349,207.517,507.776,231.754,517.411C381.013,582.441,480.543,625.313,530.341,646.03C672.529,705.173,702.074,715.446,721.332,715.788C725.568,715.859,735.038,714.81,741.172,709.832C745.251,706.287,747.852,701.339,748.459,695.967C749.498,689.297,749.787,682.533,749.32,675.799C749.32,675.799,749.32,675.799,749.32,675.799" class="icon-telegram"/><glyph unicode="&#x0050;" d="M1019.617,995.209C1027.872,975.363,1024.456,958.404,1009.45,944.374C1009.45,944.374,651.41,586.333,651.41,586.333C651.41,586.333,651.41,47.483,651.41,47.483C651.41,27.149,641.975,12.875,623.105,4.619C616.801,2.22,610.782,1,604.967,1C591.912,1,581.013,5.595,572.27,14.786C572.27,14.786,386.377,200.679,386.377,200.679C377.186,209.87,372.59,220.769,372.59,233.376C372.59,233.376,372.59,586.333,372.59,586.333C372.59,586.333,14.55,944.374,14.55,944.374C-0.456,958.404,-3.872,975.363,4.383,995.209C12.639,1014.078,26.913,1023.513,47.247,1023.513C47.247,1023.513,976.794,1023.513,976.794,1023.513C997.128,1023.513,1011.402,1014.078,1019.658,995.209C1019.658,995.209,1019.617,995.209,1019.617,995.209" class="icon-filter"/><glyph unicode="&#x0051;" d="M832.378,608.061C832.378,516.274,802.583,431.487,752.39,362.697C752.39,362.697,1005.553,109.334,1005.553,109.334C1030.549,84.338,1030.549,43.744,1005.553,18.747C980.556,-6.249,939.962,-6.249,914.966,18.747C914.966,18.747,661.803,272.11,661.803,272.11C593.013,221.718,508.226,192.122,416.439,192.122C186.673,192.122,0.5,378.295,0.5,608.061C0.5,837.827,186.673,1024,416.439,1024C646.205,1024,832.378,837.827,832.378,608.061C832.378,608.061,832.378,608.061,832.378,608.061M416.439,320.103C638.109,320.103,776.652,560.068,665.819,752.04C614.38,841.135,519.316,896.019,416.439,896.019C194.77,896.019,56.226,656.054,167.06,464.082C218.498,374.987,313.562,320.103,416.439,320.103C416.439,320.103,416.439,320.103,416.439,320.103" class="icon-search"/><glyph unicode="&#x0052;" d="M304.3,931.481C324.097,913.684,325.697,883.488,307.9,863.691C307.9,863.691,163.92,703.713,163.92,703.713C155.121,693.915,142.723,688.115,129.525,687.915C116.326,687.715,103.728,692.715,94.329,701.913C94.329,701.913,14.141,781.902,14.141,781.902C-4.457,800.7,-4.457,831.095,14.141,849.893C32.738,868.69,63.334,868.69,81.931,849.893C81.931,849.893,126.125,805.699,126.125,805.699C126.125,805.699,236.31,928.082,236.31,928.082C254.107,947.879,284.303,949.479,304.1,931.681C304.1,931.681,304.3,931.481,304.3,931.481M304.3,611.526C324.097,593.728,325.697,563.533,307.9,543.735C307.9,543.735,163.92,383.758,163.92,383.758C155.121,373.959,142.723,368.16,129.525,367.96C116.326,367.76,103.728,372.759,94.329,381.958C94.329,381.958,14.141,461.947,14.141,461.947C-4.657,480.744,-4.657,511.14,14.141,529.737C32.938,548.335,63.334,548.535,81.931,529.737C81.931,529.737,126.125,485.544,126.125,485.544C126.125,485.544,236.31,607.927,236.31,607.927C254.107,627.724,284.303,629.324,304.1,611.526C304.1,611.526,304.3,611.526,304.3,611.526M448.08,815.898C448.08,851.293,476.676,879.889,512.071,879.889C512.071,879.889,960.009,879.889,960.009,879.889C995.404,879.889,1024,851.293,1024,815.898C1024,780.502,995.404,751.906,960.009,751.906C960.009,751.906,512.071,751.906,512.071,751.906C476.676,751.906,448.08,780.502,448.08,815.898C448.08,815.898,448.08,815.898,448.08,815.898M448.08,495.942C448.08,531.337,476.676,559.933,512.071,559.933C512.071,559.933,960.009,559.933,960.009,559.933C995.404,559.933,1024,531.337,1024,495.942C1024,460.547,995.404,431.951,960.009,431.951C960.009,431.951,512.071,431.951,512.071,431.951C476.676,431.951,448.08,460.547,448.08,495.942C448.08,495.942,448.08,495.942,448.08,495.942M320.098,175.987C320.098,211.382,348.694,239.978,384.089,239.978C384.089,239.978,960.009,239.978,960.009,239.978C995.404,239.978,1024,211.382,1024,175.987C1024,140.592,995.404,111.996,960.009,111.996C960.009,111.996,384.089,111.996,384.089,111.996C348.694,111.996,320.098,140.592,320.098,175.987C320.098,175.987,320.098,175.987,320.098,175.987M96.129,271.973C170.019,271.973,216.2,191.984,179.256,127.993C162.11,98.295,130.422,80,96.129,80C22.239,80,-23.942,159.989,13.003,223.98C30.148,253.678,61.836,271.973,96.129,271.973C96.129,271.973,96.129,271.973,96.129,271.973" class="icon-project"/><glyph unicode="&#x0053;" d="M146.286,914.286C126.171,914.286,109.714,897.829,109.714,877.714C109.714,877.714,109.714,146.286,109.714,146.286C109.714,126.171,126.171,109.714,146.286,109.714C146.286,109.714,877.714,109.714,877.714,109.714C897.829,109.714,914.286,126.171,914.286,146.286C914.286,146.286,914.286,877.714,914.286,877.714C914.286,897.829,897.829,914.286,877.714,914.286C877.714,914.286,146.286,914.286,146.286,914.286C146.286,914.286,146.286,914.286,146.286,914.286M0,877.714C0,958.4,65.6,1024,146.286,1024C146.286,1024,877.714,1024,877.714,1024C958.4,1024,1024,958.4,1024,877.714C1024,877.714,1024,146.286,1024,146.286C1024,65.6,958.4,0,877.714,0C877.714,0,146.286,0,146.286,0C65.6,0,0,65.6,0,146.286C0,146.286,0,877.714,0,877.714C0,877.714,0,877.714,0,877.714M347.429,566.857C347.429,566.857,676.571,566.857,676.571,566.857C706.971,566.857,731.429,542.4,731.429,512C731.429,481.6,706.971,457.143,676.571,457.143C676.571,457.143,347.429,457.143,347.429,457.143C317.029,457.143,292.571,481.6,292.571,512C292.571,542.4,317.029,566.857,347.429,566.857C347.429,566.857,347.429,566.857,347.429,566.857" class="icon-claim-vault"/><glyph unicode="&#x0054;" d="M993.694,849.122C1033.675,889.103,1033.675,954.033,993.694,994.014C953.713,1033.995,888.783,1033.995,848.802,994.014C848.802,994.014,512,656.892,512,656.892C512,656.892,174.878,993.694,174.878,993.694C134.897,1033.675,69.967,1033.675,29.986,993.694C-9.995,953.713,-9.995,888.783,29.986,848.802C29.986,848.802,367.108,512,367.108,512C367.108,512,30.306,174.878,30.306,174.878C-9.675,134.897,-9.675,69.967,30.306,29.986C70.287,-9.995,135.217,-9.995,175.198,29.986C175.198,29.986,512,367.108,512,367.108C512,367.108,849.122,30.306,849.122,30.306C889.103,-9.675,954.033,-9.675,994.014,30.306C1033.995,70.287,1033.995,135.217,994.014,175.198C994.014,175.198,656.892,512,656.892,512C656.892,512,993.694,849.122,993.694,849.122C993.694,849.122,993.694,849.122,993.694,849.122" class="icon-close"/><glyph unicode="&#x0055;" d="M385.941,832.406C390.342,855.613,403.546,872.017,428.153,883.221C455.76,895.624,497.772,901.026,550.587,892.223C568.192,889.422,622.807,878.019,638.812,873.618C672.822,864.015,708.232,883.821,717.834,918.03C727.437,952.24,707.631,987.45,673.422,997.053C651.215,1003.254,591.399,1015.458,571.593,1018.659C502.173,1029.862,432.754,1025.661,375.538,999.853C315.921,972.846,271.108,922.632,259.305,851.412C259.105,850.411,258.905,849.211,258.905,848.211C254.504,808.8,259.505,772.389,275.109,739.98C290.514,707.771,313.92,683.964,339.127,666.159C340.328,665.159,341.728,664.359,343.129,663.359C300.717,635.951,269.108,594.139,259.505,538.323C259.305,537.123,259.105,536.123,259.105,534.922C254.504,496.311,259.905,460.701,275.91,428.892C291.714,397.684,315.521,374.877,340.528,357.872C385.34,327.464,444.357,309.859,491.37,295.855C491.37,295.855,491.37,295.855,491.37,295.855C491.37,295.855,498.772,293.654,498.772,293.654C553.188,277.25,592.599,264.446,617.606,246.041C628.609,238.039,634.011,230.837,636.611,224.235C639.212,217.833,641.813,207.03,638.412,188.025C635.011,167.819,623.007,152.014,597,141.011C568.992,129.008,526.18,124.007,472.965,132.209C447.358,136.41,402.745,151.614,364.735,164.618C364.735,164.618,364.735,164.618,364.735,164.618C356.132,167.619,347.73,170.42,340.128,173.02C306.718,184.223,270.508,166.018,259.305,132.609C248.102,99.2,266.307,62.789,299.916,51.586C305.118,49.986,311.32,47.785,318.322,45.384C355.532,32.781,415.349,12.175,452.96,6.173C452.96,6.173,452.96,6.173,452.96,6.173C452.96,6.173,453.36,6.173,453.36,6.173C522.379,-4.63,590.998,-0.629,647.814,23.578C706.631,48.785,752.844,96.599,764.847,166.619C771.449,205.229,768.649,241.44,754.845,274.449C742.241,304.457,722.035,327.264,699.629,344.869C732.638,372.677,756.645,411.288,764.847,461.302C771.249,500.913,768.649,537.923,755.245,571.533C741.841,605.142,719.635,630.349,694.828,649.555C649.215,684.765,587.597,704.37,539.384,719.574C539.384,719.574,536.583,720.575,536.583,720.575C481.768,737.98,440.956,751.183,413.548,770.589C401.345,779.391,394.543,787.594,390.742,795.396C387.141,802.798,384.34,814.001,386.141,832.406C386.141,832.406,385.941,832.406,385.941,832.406M539.384,415.289C538.984,415.489,538.584,415.489,538.184,415.689C538.184,415.689,535.383,416.489,535.383,416.489C480.567,432.894,439.556,445.497,411.948,464.102C399.544,472.505,393.343,479.907,389.942,486.709C386.941,492.71,384.14,502.113,385.741,518.118C389.542,537.523,401.545,552.727,426.752,563.53C454.76,575.534,497.572,580.535,550.987,572.133C550.987,572.133,583.796,566.931,583.796,566.931C596.4,561.13,607.203,554.928,616.206,547.926C627.209,539.524,633.01,531.521,636.211,523.519C639.412,515.517,641.813,502.713,638.412,481.707C633.61,452.299,612.805,428.892,564.191,419.69C564.191,419.69,539.384,415.089,539.384,415.089C539.384,415.089,539.384,415.289,539.384,415.289" class="icon-terms"/><glyph unicode="&#x0056;" d="M292.571,786.5C292.571,837.014,251.657,877.929,201.143,877.929C201.143,877.929,91.429,877.929,91.429,877.929C40.914,877.929,0,837.014,0,786.5C0,786.5,0,676.786,0,676.786C0,626.271,40.914,585.357,91.429,585.357C91.429,585.357,201.143,585.357,201.143,585.357C251.657,585.357,292.571,626.271,292.571,676.786C292.571,676.786,292.571,786.5,292.571,786.5C292.571,786.5,292.571,786.5,292.571,786.5M292.571,347.643C292.571,398.157,251.657,439.071,201.143,439.071C201.143,439.071,91.429,439.071,91.429,439.071C40.914,439.071,0,398.157,0,347.643C0,347.643,0,237.929,0,237.929C0,187.414,40.914,146.5,91.429,146.5C91.429,146.5,201.143,146.5,201.143,146.5C251.657,146.5,292.571,187.414,292.571,237.929C292.571,237.929,292.571,347.643,292.571,347.643C292.571,347.643,292.571,347.643,292.571,347.643M365.714,786.5C365.714,786.5,365.714,676.786,365.714,676.786C365.714,626.271,406.629,585.357,457.143,585.357C457.143,585.357,566.857,585.357,566.857,585.357C617.371,585.357,658.286,626.271,658.286,676.786C658.286,676.786,658.286,786.5,658.286,786.5C658.286,837.014,617.371,877.929,566.857,877.929C566.857,877.929,457.143,877.929,457.143,877.929C406.629,877.929,365.714,837.014,365.714,786.5C365.714,786.5,365.714,786.5,365.714,786.5M658.286,347.643C658.286,398.157,617.371,439.071,566.857,439.071C566.857,439.071,457.143,439.071,457.143,439.071C406.629,439.071,365.714,398.157,365.714,347.643C365.714,347.643,365.714,237.929,365.714,237.929C365.714,187.414,406.629,146.5,457.143,146.5C457.143,146.5,566.857,146.5,566.857,146.5C617.371,146.5,658.286,187.414,658.286,237.929C658.286,237.929,658.286,347.643,658.286,347.643C658.286,347.643,658.286,347.643,658.286,347.643M731.429,786.5C731.429,786.5,731.429,676.786,731.429,676.786C731.429,626.271,772.343,585.357,822.857,585.357C822.857,585.357,932.571,585.357,932.571,585.357C983.086,585.357,1024,626.271,1024,676.786C1024,676.786,1024,786.5,1024,786.5C1024,837.014,983.086,877.929,932.571,877.929C932.571,877.929,822.857,877.929,822.857,877.929C772.343,877.929,731.429,837.014,731.429,786.5C731.429,786.5,731.429,786.5,731.429,786.5M1024,347.643C1024,398.157,983.086,439.071,932.571,439.071C932.571,439.071,822.857,439.071,822.857,439.071C772.343,439.071,731.429,398.157,731.429,347.643C731.429,347.643,731.429,237.929,731.429,237.929C731.429,187.414,772.343,146.5,822.857,146.5C822.857,146.5,932.571,146.5,932.571,146.5C983.086,146.5,1024,187.414,1024,237.929C1024,237.929,1024,347.643,1024,347.643C1024,347.643,1024,347.643,1024,347.643" class="icon-grid"/><glyph unicode="&#x0057;" d="M683.211,683.007C651.749,683.007,626.33,708.426,626.33,739.889C626.33,771.351,651.749,796.77,683.211,796.77C683.211,796.77,967.619,796.77,967.619,796.77C999.081,796.77,1024.5,771.351,1024.5,739.889C1024.5,739.889,1024.5,455.481,1024.5,455.481C1024.5,424.019,999.081,398.6,967.619,398.6C936.156,398.6,910.737,424.019,910.737,455.481C910.737,455.481,910.737,602.485,910.737,602.485C910.737,602.485,609.621,301.546,609.621,301.546C587.401,279.327,551.317,279.327,529.098,301.546C529.098,301.546,341.922,488.722,341.922,488.722C341.922,488.722,97.687,244.664,97.687,244.664C75.468,222.445,39.384,222.445,17.164,244.664C-5.055,266.884,-5.055,302.968,17.164,325.187C17.164,325.187,301.572,609.595,301.572,609.595C323.791,631.814,359.875,631.814,382.095,609.595C382.095,609.595,569.448,422.241,569.448,422.241C569.448,422.241,830.214,683.007,830.214,683.007C830.214,683.007,683.211,683.007,683.211,683.007C683.211,683.007,683.211,683.007,683.211,683.007" class="icon-activity"/><glyph unicode="&#x0058;" d="M583.857,1024C301.571,1024,73,794.743,73,512C73,229.257,301.571,0,583.857,0C722.371,0,847.857,55.314,939.971,144.914C951.4,156.114,954.371,173.486,947.057,187.657C939.743,201.829,923.971,209.829,908.2,207.086C885.8,203.2,862.943,201.143,839.4,201.143C617.914,201.143,438.257,381.257,438.257,603.429C438.257,753.829,520.543,884.8,642.371,953.829C656.314,961.829,663.4,977.829,659.971,993.371C656.543,1008.914,643.286,1020.571,627.286,1021.943C612.886,1023.086,598.486,1023.771,583.857,1023.771C583.857,1023.771,583.857,1024,583.857,1024" class="icon-moon"/><glyph unicode="&#x0059;" d="M722.969,1021.526C732.968,1017.327,740.167,1008.328,742.167,997.73C742.167,997.73,781.961,781.961,781.961,781.961C781.961,781.961,997.73,742.367,997.73,742.367C1008.328,740.367,1017.327,733.168,1021.526,723.169C1025.726,713.171,1024.526,701.773,1018.327,692.774C1018.327,692.774,893.745,512,893.745,512C893.745,512,1018.327,331.426,1018.327,331.426C1024.526,322.427,1025.726,311.029,1021.526,301.031C1017.327,291.032,1008.328,283.833,997.73,281.833C997.73,281.833,781.961,242.039,781.961,242.039C781.961,242.039,742.167,26.27,742.167,26.27C740.167,15.672,732.968,6.673,722.969,2.474C712.971,-1.726,701.573,-0.526,692.574,5.673C692.574,5.673,512,130.255,512,130.255C512,130.255,331.426,5.673,331.426,5.673C322.427,-0.526,311.029,-1.726,301.031,2.474C291.032,6.673,283.833,15.672,281.833,26.27C281.833,26.27,242.039,242.039,242.039,242.039C242.039,242.039,26.27,281.833,26.27,281.833C15.672,283.833,6.673,291.032,2.474,301.031C-1.726,311.029,-0.526,322.427,5.673,331.426C5.673,331.426,130.255,512,130.255,512C130.255,512,5.673,692.574,5.673,692.574C-0.526,701.573,-1.726,712.971,2.474,722.969C6.673,732.968,15.672,740.167,26.27,742.167C26.27,742.167,242.039,781.961,242.039,781.961C242.039,781.961,281.833,997.73,281.833,997.73C283.833,1008.328,291.032,1017.327,301.031,1021.526C311.029,1025.726,322.427,1024.526,331.426,1018.327C331.426,1018.327,512,893.745,512,893.745C512,893.745,692.574,1018.327,692.574,1018.327C701.573,1024.526,712.971,1025.726,722.969,1021.526C722.969,1021.526,722.969,1021.526,722.969,1021.526M320.028,512C320.028,659.781,480.005,752.143,607.986,678.252C667.384,643.961,703.972,580.584,703.972,512C703.972,364.219,543.995,271.857,416.014,345.748C356.616,380.039,320.028,443.416,320.028,512C320.028,512,320.028,512,320.028,512M767.963,512C767.963,709.04,554.66,832.19,384.019,733.67C304.824,687.947,256.037,603.447,256.037,512C256.037,314.96,469.34,191.81,639.981,290.33C719.176,336.053,767.963,420.553,767.963,512C767.963,512,767.963,512,767.963,512" class="icon-sun"/><glyph unicode="&#x005a;" d="M711.111,967.222C711.111,967.222,312.889,967.222,312.889,967.222C265.778,967.222,227.378,928.467,229.156,881.533C229.511,872.111,229.867,862.689,230.4,853.444C230.4,853.444,42.667,853.444,42.667,853.444C19.022,853.444,0,834.422,0,810.778C0,646.156,59.556,531.667,139.556,453.978C218.311,377.356,314.311,338.778,385.067,319.222C426.667,307.667,455.111,273,455.111,238.156C455.111,201,424.889,170.778,387.733,170.778C387.733,170.778,341.333,170.778,341.333,170.778C309.867,170.778,284.444,145.356,284.444,113.889C284.444,82.422,309.867,57,341.333,57C341.333,57,682.667,57,682.667,57C714.133,57,739.556,82.422,739.556,113.889C739.556,145.356,714.133,170.778,682.667,170.778C682.667,170.778,636.267,170.778,636.267,170.778C599.111,170.778,568.889,201,568.889,238.156C568.889,273,597.156,307.844,638.933,319.222C709.867,338.778,805.867,377.356,884.622,453.978C964.444,531.667,1024,646.156,1024,810.778C1024,834.422,1004.978,853.444,981.333,853.444C981.333,853.444,793.6,853.444,793.6,853.444C794.133,862.689,794.489,871.933,794.844,881.533C796.622,928.467,758.222,967.222,711.111,967.222C711.111,967.222,711.111,967.222,711.111,967.222M86.933,768.111C86.933,768.111,236.978,768.111,236.978,768.111C253.156,607.933,288.889,500.911,329.244,429.267C284.978,448.822,238.933,476.378,199.111,515.133C142.222,570.422,96,650.244,87.111,768.111C87.111,768.111,86.933,768.111,86.933,768.111M825.067,515.133C785.244,476.378,739.2,448.822,694.933,429.267C735.289,500.911,771.022,607.933,787.2,768.111C787.2,768.111,937.244,768.111,937.244,768.111C928.178,650.244,881.956,570.422,825.244,515.133C825.244,515.133,825.067,515.133,825.067,515.133" class="icon-trophy"/><glyph unicode="&#x0061;" d="M2.406,991.357C2.406,991.357,397.812,462.774,397.812,462.774C397.812,462.774,0,33,0,33C0,33,89.529,33,89.529,33C89.529,33,437.851,409.332,437.851,409.332C437.851,409.332,719.326,33,719.326,33C719.326,33,1024,33,1024,33C1024,33,606.255,591.311,606.255,591.311C606.255,591.311,976.572,991.357,976.572,991.357C976.572,991.357,887.043,991.357,887.043,991.357C887.043,991.357,566.388,644.754,566.388,644.754C566.388,644.754,307.08,991.357,307.08,991.357C307.08,991.357,2.406,991.357,2.406,991.357C2.406,991.357,2.406,991.357,2.406,991.357M134.036,925.37C134.036,925.37,274.086,925.37,274.086,925.37C274.086,925.37,892.198,98.815,892.198,98.815C892.198,98.815,752.32,98.815,752.32,98.815C752.32,98.815,134.036,925.37,134.036,925.37C134.036,925.37,134.036,925.37,134.036,925.37" class="icon-x"/><glyph unicode="&#x0062;" d="M512,1024C229.274,1024,0,794.726,0,512C0,229.274,229.274,0,512,0C794.726,0,1024,229.274,1024,512C1024,794.726,794.829,1024,512,1024C512,1024,512,1024,512,1024M252.621,494.797C252.621,494.797,254.771,498.278,254.771,498.278C254.771,498.278,387.994,706.662,387.994,706.662C389.939,709.632,394.547,709.325,395.981,706.048C418.202,656.179,437.453,594.125,428.442,555.52C424.653,539.648,414.106,518.144,402.227,498.278C400.691,495.411,399.053,492.544,397.21,489.779C396.39,488.55,394.957,487.834,393.421,487.834C393.421,487.834,256.512,487.834,256.512,487.834C252.826,487.834,250.675,491.827,252.621,494.797C252.621,494.797,252.621,494.797,252.621,494.797M846.234,423.117C846.234,421.171,845.107,419.533,843.469,418.816C833.126,414.413,797.798,398.131,783.155,377.754C745.677,325.632,717.107,251.085,653.107,251.085C653.107,251.085,386.253,251.085,386.253,251.085C291.635,251.085,215.04,327.987,215.04,422.912C215.04,422.912,215.04,425.984,215.04,425.984C215.04,428.442,217.088,430.49,219.648,430.49C219.648,430.49,368.333,430.49,368.333,430.49C371.302,430.49,373.453,427.827,373.248,424.858C372.122,415.232,373.965,405.299,378.573,396.288C387.379,378.368,405.709,367.206,425.472,367.206C425.472,367.206,499.098,367.206,499.098,367.206C499.098,367.206,499.098,424.653,499.098,424.653C499.098,424.653,426.291,424.653,426.291,424.653C422.605,424.653,420.352,428.954,422.502,432.026C423.322,433.254,424.141,434.483,425.165,435.917C432.026,445.747,441.856,460.902,451.686,478.208C458.342,489.882,464.794,502.374,470.016,514.867C471.04,517.12,471.859,519.475,472.781,521.728C474.214,525.722,475.648,529.51,476.672,533.197C477.696,536.371,478.618,539.648,479.437,542.72C481.894,553.37,482.918,564.634,482.918,576.307C482.918,580.915,482.714,585.728,482.304,590.234C482.099,595.251,481.485,600.269,480.87,605.286C480.461,609.69,479.642,614.093,478.822,618.598C477.696,625.254,476.262,631.91,474.624,638.566C474.624,638.566,474.01,641.126,474.01,641.126C472.781,645.734,471.654,650.035,470.221,654.643C466.022,668.979,461.312,683.008,456.192,696.115C454.349,701.338,452.301,706.355,450.15,711.27C447.078,718.848,443.904,725.709,441.037,732.16C439.501,735.13,438.272,737.792,437.043,740.557C435.61,743.629,434.176,746.701,432.64,749.67C431.616,751.923,430.387,754.074,429.568,756.122C429.568,756.122,420.557,772.71,420.557,772.71C419.328,774.963,421.376,777.728,423.834,777.011C423.834,777.011,480.154,761.754,480.154,761.754C480.154,761.754,480.358,761.754,480.358,761.754C480.461,761.754,480.461,761.754,480.563,761.754C480.563,761.754,487.936,759.603,487.936,759.603C487.936,759.603,496.128,757.35,496.128,757.35C496.128,757.35,499.098,756.531,499.098,756.531C499.098,756.531,499.098,789.914,499.098,789.914C499.098,806.093,512,819.2,528.077,819.2C536.064,819.2,543.334,815.923,548.454,810.598C553.677,805.274,556.954,798.003,556.954,789.914C556.954,789.914,556.954,740.25,556.954,740.25C556.954,740.25,562.995,738.611,562.995,738.611C563.405,738.406,563.917,738.202,564.326,737.894C565.76,736.87,567.91,735.232,570.573,733.184C572.723,731.546,574.976,729.498,577.638,727.347C583.066,722.944,589.619,717.312,596.685,710.861C598.528,709.222,600.371,707.584,602.112,705.843C611.226,697.344,621.466,687.411,631.296,676.352C634.061,673.178,636.723,670.106,639.488,666.726C642.15,663.347,645.12,660.07,647.578,656.794C650.957,652.39,654.438,647.782,657.613,642.97C659.046,640.717,660.787,638.362,662.118,636.109C666.214,630.067,669.696,623.821,673.075,617.574C674.509,614.707,675.942,611.533,677.171,608.461C680.96,600.064,683.93,591.565,685.773,582.963C686.387,581.12,686.797,579.174,687.002,577.331C687.002,577.331,687.002,576.922,687.002,576.922C687.616,574.464,687.821,571.802,688.026,569.037C688.845,560.333,688.435,551.526,686.592,542.72C685.773,539.034,684.749,535.552,683.52,531.763C682.189,528.179,680.96,524.493,679.322,520.909C676.147,513.638,672.461,506.266,668.058,499.507C666.624,496.947,664.883,494.285,663.245,491.725C661.402,489.062,659.456,486.502,657.818,484.045C655.462,480.87,653.005,477.594,650.445,474.624C648.192,471.552,645.939,468.48,643.379,465.715C639.898,461.517,636.518,457.626,632.934,453.837C630.886,451.379,628.634,448.819,626.278,446.566C624.026,444.006,621.67,441.754,619.622,439.706C616.038,436.122,613.171,433.459,610.714,431.104C610.714,431.104,604.877,425.882,604.877,425.882C604.058,425.062,602.931,424.653,601.805,424.653C601.805,424.653,556.954,424.653,556.954,424.653C556.954,424.653,556.954,367.206,556.954,367.206C556.954,367.206,613.376,367.206,613.376,367.206C625.971,367.206,637.952,371.61,647.68,379.904C650.957,382.771,665.395,395.264,682.496,414.106C683.11,414.822,683.827,415.232,684.646,415.437C684.646,415.437,840.397,460.493,840.397,460.493C843.366,461.312,846.234,459.162,846.234,456.09C846.234,456.09,846.234,423.117,846.234,423.117C846.234,423.117,846.234,423.117,846.234,423.117C846.234,423.117,846.234,423.117,846.234,423.117" class="icon-opensea"/><glyph unicode="&#x0063;" d="M512,456.864C424.149,456.864,352.864,528.075,352.864,616C352.864,703.925,424.149,775.136,512,775.136C599.851,775.136,671.136,703.925,671.136,616C671.136,528.075,599.851,456.864,512,456.864C512,456.864,512,456.864,512,456.864M442.816,616C442.805,577.771,473.803,546.816,512,546.816C550.197,546.805,581.184,577.771,581.184,616C581.195,654.229,550.197,685.184,512,685.184C473.803,685.184,442.816,654.229,442.816,616C442.805,616,442.805,616,442.805,616M0,615.787C0,615.787,304.427,920.437,304.427,920.437C304.427,920.437,719.563,920.437,719.563,920.437C719.573,920.437,1024,615.787,1024,615.787C1024,615.787,512,104,512,104C512,104,0,615.787,0,615.787C0,615.787,0,615.787,0,615.787M747.243,726.709C617.888,856.619,406.112,856.619,276.757,726.699C276.757,726.699,166.059,616,166.059,616C166.059,616,276.757,505.291,276.757,505.291C406.112,375.371,617.888,375.381,747.243,505.291C747.243,505.291,857.941,616,857.941,616C857.941,616,747.243,726.699,747.243,726.699C747.243,726.699,747.243,726.699,747.243,726.699" class="icon-looksrare"/><glyph unicode="&#x0064;" d="M1004.071,854.157C1004.071,854.157,1003.012,860.513,1003.012,860.513C1003.012,860.513,1003.012,863.338,1003.012,863.338C1003.012,863.338,1002.306,866.516,1002.306,866.516C1002.306,866.516,1000.893,872.872,1000.893,872.872C1000.893,872.872,999.481,878.874,999.481,878.874C999.481,878.874,998.774,881.699,998.774,881.699C998.421,882.759,998.068,883.818,998.068,884.877C998.068,884.877,996.303,890.88,996.303,890.88C996.303,890.88,994.184,896.883,994.184,896.883C994.184,896.883,993.125,900.061,993.125,900.061C993.125,900.061,992.066,902.886,992.066,902.886C992.066,902.886,989.947,908.888,989.947,908.888C989.947,908.888,987.475,914.891,987.475,914.891C987.475,914.891,986.416,917.716,986.416,917.716C986.416,917.716,985.003,920.541,985.003,920.541C985.003,920.541,982.179,926.19,982.179,926.19C982.179,926.19,979.354,931.84,979.354,931.84C978.648,932.546,978.294,933.606,977.941,934.665C977.941,934.665,976.176,937.137,976.176,937.137C975.117,938.902,974.057,940.668,972.645,942.786C972.645,942.786,972.645,942.786,972.645,942.786C972.645,942.786,969.114,948.083,969.114,948.083C969.114,948.083,965.23,953.379,965.23,953.379C964.17,955.145,964.17,955.145,961.346,958.323C961.346,958.323,961.346,958.323,961.346,958.323C959.58,960.441,957.461,962.913,955.343,965.032C954.283,966.091,953.224,967.15,952.871,967.857C951.812,968.916,950.752,969.975,949.693,971.034C949.34,971.388,948.987,971.741,948.634,972.094C948.634,972.094,944.043,976.331,944.043,976.331C944.043,976.331,939.453,980.568,939.453,980.568C939.453,980.568,934.863,984.452,934.863,984.452C922.504,994.339,909.086,1002.108,894.609,1008.463C881.191,1013.76,867.42,1017.997,853.296,1020.469C840.584,1022.588,827.519,1023.647,814.454,1024C814.454,1024,796.093,1024,796.093,1024C796.093,1024,778.791,1022.234,778.791,1022.234C773.141,1021.881,767.492,1020.822,762.195,1019.763C762.195,1019.763,754.074,1018.35,754.074,1018.35C754.074,1018.35,746.306,1016.938,746.306,1016.938C727.591,1012.701,709.583,1007.404,691.574,1000.342C676.744,994.692,662.62,988.337,648.496,981.274C629.075,971.741,611.067,960.088,593.765,947.023C589.528,943.492,585.29,939.608,581.759,935.018C579.288,931.84,578.228,929.368,579.288,927.956C579.994,926.543,582.466,925.837,586.703,926.543C592.352,926.897,598.002,927.956,603.299,929.368C617.423,933.252,637.55,938.902,662.973,945.258C675.685,948.436,689.809,951.967,705.346,955.145C721.941,958.323,738.537,960.794,755.486,962.207C783.381,964.679,811.63,962.207,838.466,954.792C847.293,952.32,856.121,948.789,864.242,944.199C875.894,937.49,886.134,928.309,894.256,917.363C895.668,915.597,897.081,913.832,898.493,911.713C898.493,911.713,900.259,908.535,900.259,908.535C900.965,907.476,901.671,906.417,902.024,905.71C912.264,887.349,918.267,866.869,919.679,846.036C920.386,833.677,920.386,821.319,919.679,809.313C918.62,796.248,916.854,782.83,914.03,770.119C908.38,742.223,900.612,714.681,890.019,687.846C879.072,658.891,866.361,630.996,851.53,603.454C840.231,582.268,828.579,561.788,815.867,541.308C815.867,541.308,815.867,765.528,815.867,765.528C815.867,765.528,476.534,940.668,476.534,940.668C476.534,940.668,136.849,765.528,136.849,765.528C136.849,765.528,136.849,374.29,136.849,374.29C136.849,374.29,453.583,175.139,453.583,175.139C447.933,171.608,442.283,168.077,436.634,164.546C410.151,148.657,382.962,134.179,354.714,121.468C328.584,109.815,301.748,100.281,273.853,93.219C261.141,90.041,248.077,87.57,235.012,85.804C223.006,84.392,211.001,83.686,199.348,84.039C177.809,84.392,156.623,90.041,137.908,99.928C133.671,102.047,129.787,104.519,125.903,107.343C124.49,108.403,123.078,109.462,121.666,110.874C121.312,111.228,120.959,111.581,120.606,111.934C120.606,111.934,115.31,116.524,115.31,116.524C108.601,122.88,102.951,130.295,98.361,138.417C93.417,146.538,89.533,155.012,86.355,163.84C83.177,173.021,81.059,182.201,79.293,191.382C79.293,191.382,78.234,198.444,78.234,198.444C77.881,200.563,77.528,203.034,77.174,205.506C77.174,205.506,76.468,212.568,76.468,212.568C76.468,212.568,76.468,245.407,76.468,245.407C76.821,262.356,78.234,278.952,80.706,295.901C82.824,311.437,85.649,325.914,88.121,338.626C89.886,347.454,92.005,355.928,93.417,363.697C96.595,377.468,99.067,389.473,100.832,398.301C101.892,403.95,102.598,409.247,102.951,414.897C102.951,418.781,101.892,421.252,100.479,421.959C99.067,422.665,96.595,421.606,93.77,419.134C89.533,415.25,85.649,411.012,82.471,406.069C70.112,388.414,59.872,369.346,51.398,349.572C45.748,336.508,40.099,322.03,34.449,305.788C28.799,287.779,24.209,269.065,21.031,250.35C21.031,249.644,20.678,249.291,20.678,248.585C20.325,246.819,19.972,244.701,19.972,242.582C19.266,240.11,18.912,237.286,18.912,234.461C18.206,229.164,17.5,223.514,17.5,217.865C17.5,217.865,17.5,182.201,17.5,182.201C18.206,169.137,19.972,156.425,23.15,143.713C26.328,129.589,30.918,116.171,37.274,103.106C43.983,88.982,52.457,75.917,62.697,63.912C63.403,63.206,64.11,62.146,65.169,61.44C67.288,59.321,69.053,56.85,71.172,55.084C73.997,52.259,77.174,49.434,80.352,46.61C86.708,40.96,93.417,36.017,100.126,31.426C100.126,31.426,105.776,28.248,105.776,28.248C105.776,28.248,111.426,25.07,111.426,25.07C114.957,22.952,118.841,21.186,122.725,19.421C130.493,15.89,138.614,12.712,146.736,10.24C149.208,9.534,151.679,8.828,154.151,8.121C155.563,7.768,156.976,7.415,158.388,7.062C158.388,7.062,164.744,5.65,164.744,5.65C164.744,5.65,171.1,4.59,171.1,4.59C171.1,4.59,177.456,3.531,177.456,3.531C177.456,3.531,183.812,2.472,183.812,2.472C183.812,2.472,195.817,1.059,195.817,1.059C212.413,-0.353,229.362,-0.353,245.958,1.059C262.554,2.119,279.15,4.59,295.746,7.768C328.937,14.477,361.423,24.364,393.202,37.076C425.688,50.141,457.114,65.324,487.128,82.626C518.554,100.281,548.568,119.702,577.875,140.535C699.343,229.164,803.508,339.332,885.428,465.39C904.849,495.757,922.857,526.83,938.747,559.316C954.283,590.389,967.701,622.874,979.001,655.713C989.947,687.846,997.715,720.684,1003.012,754.229C1005.483,770.825,1006.896,787.421,1006.896,804.37C1007.602,820.612,1006.543,837.561,1004.071,854.157C1004.071,854.157,1004.071,854.157,1004.071,854.157M412.27,335.801C412.27,335.801,235.012,443.145,235.012,443.145C235.012,443.145,235.012,642.648,235.012,642.648C235.012,642.648,412.623,537.07,412.623,537.07C412.623,537.07,412.623,335.801,412.623,335.801C412.623,335.801,412.27,335.801,412.27,335.801M468.06,633.114C468.06,633.114,294.333,734.455,294.333,734.455C294.333,734.455,468.06,825.909,468.06,825.909C468.06,825.909,648.849,734.102,648.849,734.102C648.849,734.102,468.06,633.114,468.06,633.114C468.06,633.114,468.06,633.114,468.06,633.114M698.99,443.145C698.99,443.145,518.201,335.448,518.201,335.448C518.201,335.448,518.201,536.717,518.201,536.717C518.201,536.717,698.99,642.648,698.99,642.648C698.99,642.648,698.99,443.145,698.99,443.145C698.99,443.145,698.99,443.145,698.99,443.145" class="icon-arcade"/><glyph unicode="&#x0065;" d="M683.154,192.009C683.154,192.009,683.154,298.673,683.154,298.673C683.154,304.908,681.138,310.022,677.143,314.017C673.149,318.012,668.034,320.028,661.799,320.028C661.799,320.028,597.808,320.028,597.808,320.028C597.808,320.028,597.808,661.374,597.808,661.374C597.808,667.609,595.792,672.723,591.798,676.718C587.803,680.713,582.688,682.729,576.453,682.729C576.453,682.729,363.126,682.729,363.126,682.729C356.891,682.729,351.777,680.713,347.782,676.718C343.787,672.723,341.771,667.609,341.771,661.374C341.771,661.374,341.771,554.71,341.771,554.71C341.771,548.475,343.787,543.361,347.782,539.366C351.777,535.371,356.891,533.355,363.126,533.355C363.126,533.355,427.117,533.355,427.117,533.355C427.117,533.355,427.117,320.028,427.117,320.028C427.117,320.028,363.126,320.028,363.126,320.028C356.891,320.028,351.777,318.012,347.782,314.017C343.787,310.022,341.771,304.908,341.771,298.673C341.771,298.673,341.771,192.009,341.771,192.009C341.771,185.775,343.787,180.66,347.782,176.665C351.777,172.67,356.891,170.654,363.126,170.654C363.126,170.654,661.799,170.654,661.799,170.654C668.034,170.654,673.149,172.67,677.143,176.665C681.138,180.66,683.154,185.775,683.154,192.009C683.154,192.009,683.154,192.009,683.154,192.009M597.808,789.355C597.808,789.355,597.808,896.019,597.808,896.019C597.808,902.253,595.792,907.368,591.798,911.363C587.803,915.358,582.688,917.374,576.453,917.374C576.453,917.374,448.435,917.374,448.435,917.374C442.2,917.374,437.085,915.358,433.09,911.363C429.096,907.368,427.08,902.253,427.08,896.019C427.08,896.019,427.08,789.355,427.08,789.355C427.08,783.12,429.096,778.006,433.09,774.011C437.085,770.016,442.2,768,448.435,768C448.435,768,576.453,768,576.453,768C582.688,768,587.803,770.016,591.798,774.011C595.792,778.006,597.808,783.12,597.808,789.355C597.808,789.355,597.808,789.355,597.808,789.355M1024.5,512C1024.5,419.113,1001.614,333.431,955.843,254.992C910.071,176.553,847.947,114.429,769.508,68.657C691.069,22.886,605.387,0,512.5,0C419.613,0,333.931,22.886,255.492,68.657C177.053,114.429,114.929,176.553,69.157,254.992C23.386,333.431,0.5,419.113,0.5,512C0.5,604.887,23.386,690.569,69.157,769.008C114.929,847.447,177.053,909.571,255.492,955.343C333.931,1001.114,419.613,1024,512.5,1024C605.387,1024,691.069,1001.114,769.508,955.343C847.947,909.571,910.071,847.447,955.843,769.008C1001.614,690.569,1024.5,604.887,1024.5,512C1024.5,512,1024.5,512,1024.5,512" class="icon-info"/><glyph unicode="&#x0066;" d="M1024.5,622.155C1024.5,613.126,1019.158,603.27,1008.51,592.621C1008.51,592.621,785.128,374.787,785.128,374.787C785.128,374.787,838.061,67.077,838.061,67.077C838.475,64.217,838.682,60.116,838.682,54.774C838.682,46.159,836.511,38.888,832.203,32.926C827.895,26.964,821.623,24,813.421,24C805.633,24,797.431,26.447,788.815,31.375C788.815,31.375,512.5,176.597,512.5,176.597C512.5,176.597,236.185,31.375,236.185,31.375C227.156,26.447,218.954,24,211.579,24C202.963,24,196.485,26.964,192.177,32.926C187.869,38.888,185.698,46.159,185.698,54.774C185.698,57.221,186.112,61.322,186.939,67.077C186.939,67.077,239.872,374.787,239.872,374.787C239.872,374.787,15.87,592.621,15.87,592.621C5.635,603.683,0.5,613.539,0.5,622.155C0.5,637.352,11.976,646.76,34.962,650.448C34.962,650.448,343.878,695.386,343.878,695.386C343.878,695.386,482.346,975.389,482.346,975.389C490.134,992.206,500.197,1000.615,512.5,1000.615C524.803,1000.615,534.866,992.206,542.654,975.389C542.654,975.389,681.122,695.386,681.122,695.386C681.122,695.386,990.038,650.448,990.038,650.448C1013.024,646.76,1024.5,637.318,1024.5,622.155C1024.5,622.155,1024.5,622.155,1024.5,622.155" class="icon-star"/><glyph unicode="&#x0067;" d="M781.142,754.474C788.517,746.272,789.964,737.243,785.45,727.387C785.45,727.387,453.134,15.37,453.134,15.37C447.792,5.135,439.177,0,427.287,0C425.668,0,422.773,0.414,418.672,1.241C411.676,3.274,406.472,7.168,402.992,12.923C399.511,18.678,398.615,24.813,400.235,31.395C400.235,31.395,521.472,528.645,521.472,528.645C521.472,528.645,271.623,466.476,271.623,466.476C270.003,466.062,267.522,465.856,264.248,465.856C256.873,465.856,250.498,468.096,245.156,472.61C237.782,478.779,235.128,486.774,237.161,496.596C237.161,496.596,360.845,1004.288,360.845,1004.288C362.465,1010.043,365.773,1014.764,370.701,1018.452C375.629,1022.139,381.384,1024,387.932,1024C387.932,1024,589.775,1024,589.775,1024C597.563,1024,604.111,1021.45,609.453,1016.315C614.794,1011.18,617.448,1005.149,617.448,998.154C617.448,994.88,616.414,991.192,614.381,987.091C614.381,987.091,509.134,702.161,509.134,702.161C509.134,702.161,752.814,762.469,752.814,762.469C756.088,763.296,758.569,763.709,760.189,763.709C767.977,763.709,774.939,760.642,781.107,754.474C781.107,754.474,781.142,754.474,781.142,754.474" class="icon-actions"/><glyph unicode="&#x0068;" d="M241.574,748.397C241.574,767.452,234.84,783.697,221.342,797.195C207.844,810.693,191.598,817.427,172.544,817.427C153.49,817.427,137.244,810.693,123.746,797.195C110.248,783.697,103.514,767.452,103.514,748.397C103.514,729.343,110.248,713.097,123.746,699.6C137.244,686.102,153.49,679.368,172.544,679.368C191.598,679.368,207.844,686.102,221.342,699.6C234.84,713.097,241.574,729.343,241.574,748.397C241.574,748.397,241.574,748.397,241.574,748.397M816.941,437.794C816.941,418.74,810.298,402.585,796.981,389.268C796.981,389.268,532.217,123.96,532.217,123.96C518.205,110.643,501.839,104,483.147,104C464.093,104,447.938,110.643,434.621,123.96C434.621,123.96,49.07,510.055,49.07,510.055C35.391,523.372,23.795,541.52,14.283,564.53C4.771,587.54,0,608.557,0,627.611C0,627.611,0,851.942,0,851.942C0,870.634,6.824,886.819,20.504,900.468C34.183,914.117,50.338,920.941,69.03,920.971C69.03,920.971,293.361,920.971,293.361,920.971C312.415,920.971,333.432,916.2,356.442,906.688C379.452,897.176,397.781,885.581,411.43,871.902C411.43,871.902,796.981,486.894,796.981,486.894C810.298,472.883,816.941,456.516,816.941,437.824C816.941,437.824,816.941,437.794,816.941,437.794M1024,437.794C1024,418.74,1017.357,402.585,1004.04,389.268C1004.04,389.268,739.275,123.96,739.275,123.96C725.264,110.643,708.898,104,690.206,104C677.251,104,666.652,106.506,658.378,111.549C650.105,116.592,640.593,124.685,629.812,135.827C629.812,135.827,883.253,389.268,883.253,389.268C896.57,402.585,903.213,418.74,903.213,437.794C903.213,456.486,896.57,472.853,883.253,486.864C883.253,486.864,497.702,871.872,497.702,871.872C484.023,885.551,465.693,897.146,442.714,906.658C419.734,916.17,398.687,920.941,379.633,920.941C379.633,920.941,500.42,920.941,500.42,920.941C519.474,920.941,540.491,916.17,563.5,906.658C586.51,897.146,604.84,885.551,618.489,871.872C618.489,871.872,1004.04,486.864,1004.04,486.864C1017.357,472.853,1024,456.486,1024,437.794C1024,437.794,1024,437.794,1024,437.794" class="icon-attributes"/></font>
</defs>
</svg>
